Superman.der.Film.1978.German.DL.2160p.UHD.BluRay.x265-ENDSTATiON


 Download: Hier klicken

Download in den Warezkorb
Superman.der.Film.1978.German.DL.2160p.UHD.BluRay.x265-ENDSTATiON

DATE 11 / 2018

SOURCE UHD BD

VIDEO 3840 x 1600 (crf17 @ 26,4 mbps)
AUDIO German AC3 2.0
English TrueHD 7.1
SUBS German, English

RUNTIME 144 min
GENRE Action , Adventure , Drama
IMDB RATING 7,3 / 10 from 143.433 users
IMDB LINK http://www.imdb.com/title/tt0078346/

Bevor ihr Planet Krypton explodiert, schicken Jor-El und Lara ihren Sohn Kal-El in einer Kapsel auf die Erde, wo er vom Farmerehepaar Kent großgezogen wird. Sie nehmen seine übernatürlichen Fähigkeiten hin. Als Reporter Clark Kent arbeitet Superman in Metropolis für die Zeitung Daily Planet. Er verliebt sich in Kollegin Lois Lane. Superverbrecher Lex Luthor lenkt Interkontinental-Raketen auf den San-Andreas-Graben ab. Bei der tektonischen Bewegung wird Lois getötet. Superman lässt die Zeit rückwärts laufen und rettet Lois und die Erde.

Movies
Action
Datum
25.01.2019 17:11
Größe
31,52 GB (64 Parts)
.rar-Passwort
(kein Passwort)
Sprache
Untertitel

7,3/10


General
Unique ID : 44547017118401803203321867596945067055 (0x21837183FB91D036BA373AF731CA8C2F)
Complete name : Superman.der.Film.1978.German.DL.2160p.UHD.BluRay.x265-ENDSTATiON/Superman.der.Film.1978.German.DL.2160p.UHD.BluRay.x265-ENDSTATiON.mkv
Format : Matroska
Format version : Version 4 / Version 2
File size : 31.4 GiB
Duration : 2h 23mn
Overall bit rate mode : Variable
Overall bit rate : 31.4 Mbps
Encoded date : UTC 2018-11-03 17:21:44
Writing application : mkvmerge v23.0.0 ('The Bride Said No') 64-bit
Writing library : libebml v1.3.6 + libmatroska v1.4.9
DURATION : 02:23:12.256000000
NUMBER_OF_FRAMES : 268508
NUMBER_OF_BYTES : 206214144
_STATISTICS_WRITING_APP : mkvmerge v23.0.0 ('The Bride Said No') 64-bit
_STATISTICS_WRITING_DATE_UTC : 2018-11-03 17:21:44
_STATISTICS_TAGS : BPS DURATION NUMBER_OF_FRAMES NUMBER_OF_BYTES

Video
ID : 1
Format : HEVC
Format/Info : High Efficiency Video Coding
Format profile : Main 10@L5.1
Codec ID : V_MPEGH/ISO/HEVC
Duration : 2h 23mn
Width : 3 840 pixels
Height : 1 600 pixels
Display aspect ratio : 2.40:1
Frame rate mode : Constant
Frame rate : 23.976 fps
Color space : YUV
Chroma subsampling : 4:2:0
Bit depth : 10 bits
Writing library : x265 2.8+58-d17bc7714ed2:[Windows][GCC 8.2.0][64 bit] 10bit
Encoding settings : cpuid=1111039 / frame-threads=5 / numa-pools=36 / wpp / no-pmode / no-pme / no-psnr / no-ssim / log-level=2 / input-csp=1 / input-res=3840x1600 / interlace=0 / total-frames=206008 / level-idc=51 / high-tier=1 / uhd-bd=0 / ref=4 / no-allow-non-conformance / repeat-headers / annexb / aud / hrd / info / hash=0 / no-temporal-layers / no-open-gop / min-keyint=24 / keyint=240 / gop-lookahead=0 / bframes=4 / b-adapt=2 / b-pyramid / bframe-bias=0 / rc-lookahead=25 / lookahead-slices=4 / scenecut=40 / radl=0 / no-intra-refresh / ctu=64 / min-cu-size=8 / rect / no-amp / max-tu-size=32 / tu-inter-depth=1 / tu-intra-depth=1 / limit-tu=0 / rdoq-level=2 / dynamic-rd=0.00 / no-ssim-rd / signhide / no-tskip / nr-intra=0 / nr-inter=0 / no-constrained-intra / no-strong-intra-smoothing / max-merge=3 / limit-refs=3 / limit-modes / me=3 / subme=3 / merange=57 / temporal-mvp / weightp / no-weightb / no-analyze-src-pics / deblock=-3:-3 / no-sao / no-sao-non-deblock / rd=4 / no-early-skip / rskip / no-fast-intra / no-tskip-fast / no-cu-lossless / no-b-intra / no-splitrd-skip / rdpenalty=0 / psy-rd=2.00 / psy-rdoq=1.00 / no-rd-refine / no-lossless / cbqpoffs=0 / crqpoffs=0 / rc=crf / crf=17.0 / qcomp=0.60 / qpstep=4 / stats-write=0 / stats-read=0 / vbv-maxrate=160000 / vbv-bufsize=160000 / vbv-init=0.9 / crf-max=0.0 / crf-min=0.0 / ipratio=1.40 / pbratio=1.30 / aq-mode=1 / aq-strength=1.00 / cutree / zone-count=0 / no-strict-cbr / qg-size=32 / no-rc-grain / qpmax=69 / qpmin=0 / no-const-vbv / sar=1 / overscan=0 / videoformat=5 / range=0 / colorprim=9 / transfer=16 / colormatrix=9 / chromaloc=1 / chromaloc-top=2 / chromaloc-bottom=2 / display-window=0 / master-display=G(13250,34500)B(7500,3000)R(34000,16000)WP(15635,16450)L(40000000,50) / max-cll=3938,193 / min-luma=0 / max-luma=1023 / log2-max-poc-lsb=8 / vui-timing-info / vui-hrd-info / slices=1 / no-opt-qp-pps / no-opt-ref-list-length-pps / no-multi-pass-opt-rps / scenecut-bias=0.05 / no-opt-cu-delta-qp / no-aq-motion / hdr / hdr-opt / no-dhdr10-opt / no-idr-recovery-sei / analysis-reuse-level=5 / scale-factor=0 / refine-intra=0 / refine-inter=0 / refine-mv=0 / no-limit-sao / ctu-info=0 / no-lowpass-dct / refine-mv-type=0 / copy-pic=1 / max-ausize-factor=1.0 / no-dynamic-refine / no-single-sei
Default : Yes
Forced : No
DURATION : 02:23:12.251000000
NUMBER_OF_FRAMES : 206008
NUMBER_OF_BYTES : 28330752973
_STATISTICS_WRITING_APP : mkvmerge v23.0.0 ('The Bride Said No') 64-bit
_STATISTICS_WRITING_DATE_UTC : 2018-11-03 17:21:44
_STATISTICS_TAGS : BPS DURATION NUMBER_OF_FRAMES NUMBER_OF_BYTES

Audio #1
ID : 2
Format : AC-3
Format/Info : Audio Coding 3
Mode extension : CM (complete main)
Format settings, Endianness : Big
Codec ID : A_AC3
Duration : 2h 23mn
Bit rate mode : Constant
Bit rate : 192 Kbps
Channel(s) : 2 channels
Channel positions : Front: L R
Sampling rate : 48.0 KHz
Bit depth : 16 bits
Compression mode : Lossy
Stream size : 197 MiB (1%)
Language : German
Default : Yes
Forced : No
DURATION : 02:23:12.250000000
NUMBER_OF_FRAMES : 10310700
NUMBER_OF_BYTES : 4182595936
_STATISTICS_WRITING_APP : mkvmerge v23.0.0 ('The Bride Said No') 64-bit
_STATISTICS_WRITING_DATE_UTC : 2018-11-03 17:21:44
_STATISTICS_TAGS : BPS DURATION NUMBER_OF_FRAMES NUMBER_OF_BYTES

Audio #2
ID : 3
Format : TrueHD
Codec ID : A_TRUEHD
Duration : 2h 23mn
Bit rate mode : Variable
Maximum bit rate : 7 134 Kbps
Channel(s) : 8 channels
Channel positions : Front: L C R, Side: L R, Back: L R, LFE
Sampling rate : 48.0 KHz
Compression mode : Lossless
Title : Atmos 7.1
Language : English
Default : No
Forced : No
DURATION : 02:23:12.256000000
NUMBER_OF_FRAMES : 268508
NUMBER_OF_BYTES : 687380480
_STATISTICS_WRITING_APP : mkvmerge v23.0.0 ('The Bride Said No') 64-bit
_STATISTICS_WRITING_DATE_UTC : 2018-11-03 17:21:44
_STATISTICS_TAGS : BPS DURATION NUMBER_OF_FRAMES NUMBER_OF_BYTES

Audio #3
ID : 4
Format : AC-3
Format/Info : Audio Coding 3
Mode extension : CM (complete main)
Format settings, Endianness : Big
Codec ID : A_AC3
Duration : 2h 23mn
Bit rate mode : Constant
Bit rate : 640 Kbps
Channel(s) : 6 channels
Channel positions : Front: L C R, Side: L R, LFE
Sampling rate : 48.0 KHz
Bit depth : 16 bits
Compression mode : Lossy
Stream size : 656 MiB (2%)
Title : AC-3 5.1
Language : English
Default : No
Forced : No
DURATION : 02:23:12.256000000
NUMBER_OF_FRAMES : 268508
NUMBER_OF_BYTES : 206214144
_STATISTICS_WRITING_APP : mkvmerge v23.0.0 ('The Bride Said No') 64-bit
_STATISTICS_WRITING_DATE_UTC : 2018-11-03 17:21:44
_STATISTICS_TAGS : BPS DURATION NUMBER_OF_FRAMES NUMBER_OF_BYTES

Audio #4
ID : 5
Format : AC-3
Format/Info : Audio Coding 3
Format profile : Dolby Digital
Mode extension : CM (complete main)
Format settings, Endianness : Big
Codec ID : A_AC3
Duration : 2h 23mn
Bit rate mode : Constant
Bit rate : 192 Kbps
Channel(s) : 2 channels
Channel positions : Front: L R
Sampling rate : 48.0 KHz
Bit depth : 16 bits
Compression mode : Lossy
Stream size : 197 MiB (1%)
Title : Commentary by Executive Producer Ilya Salkind
Language : English
Default : No
Forced : No

Text #1
ID : 6
Format : PGS
Muxing mode : zlib
Codec ID : S_HDMV/PGS
Codec ID/Info : The same subtitle format used on BDs/HD-DVDs
Language : German
Default : No
Forced : No

Text #2
ID : 7
Format : PGS
Muxing mode : zlib
Codec ID : S_HDMV/PGS
Codec ID/Info : The same subtitle format used on BDs/HD-DVDs
Title : SDH
Language : English
Default : No
Forced : No
DURATION : 02:22:18.488000000
NUMBER_OF_FRAMES : 2790
NUMBER_OF_BYTES : 27279000
_STATISTICS_WRITING_APP : mkvmerge v23.0.0 ('The Bride Said No') 64-bit
_STATISTICS_WRITING_DATE_UTC : 2018-11-03 17:21:44
_STATISTICS_TAGS : BPS DURATION NUMBER_OF_FRAMES NUMBER_OF_BYTES

Menu
00:00:00.000 : :00:00:00.000
00:05:18.985 : :00:05:18.985
00:09:38.203 : :00:09:38.203
00:11:17.969 : :00:11:17.969
00:13:43.990 : :00:13:43.990
00:17:43.062 : :00:17:43.062
00:21:41.800 : :00:21:41.800
00:23:23.027 : :00:23:23.027
00:26:18.410 : :00:26:18.410
00:29:46.576 : :00:29:46.576
00:33:34.429 : :00:33:34.429
00:39:06.052 : :00:39:06.052
00:42:42.226 : :00:42:42.226
00:48:00.795 : :00:48:00.795
00:52:10.336 : :00:52:10.336
00:55:23.779 : :00:55:23.779
00:59:55.759 : :00:59:55.759
01:02:42.467 : :01:02:42.467
01:04:48.760 : :01:04:48.760
01:07:57.407 : :01:07:57.407
01:10:41.070 : :01:10:41.070
01:15:30.484 : :01:15:30.484
01:17:10.918 : :01:17:10.918
01:20:36.582 : :01:20:36.582
01:25:32.502 : :01:25:32.502
01:28:35.477 : :01:28:35.477
01:32:03.893 : :01:32:03.893
01:34:15.149 : :01:34:15.149
01:37:53.910 : :01:37:53.910
01:41:19.198 : :01:41:19.198
01:42:41.405 : :01:42:41.405
01:46:37.933 : :01:46:37.933
01:51:33.979 : :01:51:33.979
01:55:05.816 : :01:55:05.816
01:57:49.938 : :01:57:49.938
02:01:46.424 : :02:01:46.424
02:04:30.004 : :02:04:30.004
02:07:18.130 : :02:07:18.130
02:10:37.038 : :02:10:37.038
02:14:19.385 : :02:14:19.385
02:15:40.132 : :02:15:40.132

Superman.der.Film.1978.German.DL.2160p.UHD.BluRay.x265-ENDSTATiON

DATE          11 / 2018

SOURCE        UHD BD

VIDEO         3840 x 1600 (crf17 @ 26,4 mbps)
AUDIO         German AC3 2.0
              English TrueHD 7.1
SUBS          German, English

RUNTIME       144 min
GENRE         Action ,  Adventure ,  Drama
IMDB RATING   7,3 / 10 from 143.433 users
IMDB LINK     http://www.imdb.com/title/tt0078346/

Das DDL-Warez Qualitätsversprechen: Alle Downloads virenfrei und von uns geprüft.

Ohne Premium-Account: Kostenlos 250 GB Highspeed sichern (hier klicken)
Highspeed-Download
Download vollständig online (zuletzt geprüft vor 2 Min.)

Download Mirror 1
Download vollständig online (zuletzt geprüft vor 23 Std.)

Download Mirror 2
Download vollständig online (zuletzt geprüft vor 28 Std.)

Stealth-Download
Download vollständig online (zuletzt geprüft vor 2 Min.)


Bisher keine Kommentare.
Ausschnitt der Videodatei:

Sample
Probleme mit Download-Managern bitte direkt dem Softwarehersteller melden.
Probleme mit nicht erreichbaren bzw. offline Links (Reupp-Wünsche) bitte nicht melden.
Auf Fehlermeldungen wie "This server is currently under maintenance!" hat DDL-Warez keinen Einfluss (Hosterfehler).
Bei Problemen mit dem Entpacken der Dateien zuerst überprüfen, ob die aktuellste Version des Entpackprogramms verwendet wird.

Weitere Probleme bitte so kurz und verständlich wie möglich hier beschreiben: